hard disk multimediale

Il luogo giusto per le vostre discussioni su qualunque software di grafica e sulle tematiche riguardanti l'editing audio/video. Si parla di DirectX, editing audio/video, codec e computer grafica.

Moderatore: Staff forum IlSoftware.it

Avatar utente
Giallu
Active Software Plus
Active Software Plus
Messaggi: 553
Iscritto il: 28 ott 2007 16:54

Re: hard disk multimediale

Messaggioda Giallu » 22 ago 2011 16:24

La maggior parte dei film che non vedo hanno il codec AC3, ma con questo codec vedo anche alcuni film?!!
Ciao auberve. E più facile a farsi che ha dirtelo. Copy l'info e lo incolli nella risposta che stai effettuando in questa discussione.
Per chiarire alcuni concetti.
Il codec AC3 e usato sia nei DVD per capirsi e nei Blue Ray. Ed in tutti i player inclusi nei televisori di ultima generazione e lettori DVD e Blue Ray. Capì !!!
Il file mp3. Con gli avi vengono messi solo da ripper di basso livello. Perchè nella loro ignoranza in materia lo utilizzano per risparmiare più spazio a parita di bit rate. Rispetto all'AC3. Così sempre seguendo questo ragionamento comprimo di più l'audio per recuperare il video. Capisci che chi rippa non pensa che lo vuoi vedere con la tua TV di casa. Chi invece te lo serve con una qualità migliore te lo mette in AC3.
Devi saper che i film con estensione avi hanno gli giorni contati. Quando si decideranno pure in Italia a disporre di player inclusi in tutti i TV e Lettori. Ad leggere gli mkv sarà un miracolo.E vedrai che .mkv prenderà il largo.
Tu immagina un back-up di un DVD originale o per farla più triste in Blue Ray nel formato avi. Uscirebbe na schifezza.
Mò so stato chiaro.
E per finire se vuoi vedere i film come Dio comanda comincia ad orientarti su quelli in mpeg4 con estensione .mkv così dopo ne parliamo.
Gli avi seli vedono solo gli italiani. Che si accontentano.
Se non mi alleghi sto benedetto file info non ti posso aiutare per settare virtualDub.
Eccoti e tanto difficile ???
General
Complete name : G:\The Guardian.avi
Format : AVI
Format/Info : Audio Video Interleave
File size : 1.22 GiB
Duration : 2h 13mn
Overall bit rate : 1 309 Kbps
Writing application : VirtualDubMod 1.5.10.2 (build 2540/release)
Writing library : VirtualDub build 32842/release

Video
ID : 0
Format : MPEG-4 Visual
Format profile : Advanced Simple@L5
Format settings, BVOP : 2
Format settings, QPel : No
Format settings, GMC : No warppoints
Format settings, Matrix : Default (MPEG)
Codec ID : XVID
Codec ID/Hint : XviD
Duration : 2h 13mn
Bit rate : 1 108 Kbps
Width : 576 pixels
Height : 304 pixels
Display aspect ratio : 1.895
Frame rate : 25.000 fps
Color space : YUV
Chroma subsampling : 4:2:0
Bit depth : 8 bits
Scan type : Progressive
Compression mode : Lossy
Bits/(Pixel*Frame) : 0.253
Stream size : 1.03 GiB (85%)
Writing library : XviD 1.2.0.dev47 (UTC 2006-11-01)

Audio
ID : 1
Format : AC-3
Format/Info : Audio Coding 3
Mode extension : CM (complete main)
Codec ID : 2000
Duration : 2h 13mn
Bit rate mode : Constant
Bit rate : 192 Kbps
Channel(s) : 2 channels
Channel positions : Front: L R
Sampling rate : 48.0 KHz
Bit depth : 16 bits
Compression mode : Lossy
Stream size : 183 MiB (15%)
Alignment : Aligned on interleaves
Interleave, duration : 40 ms (1.00 video frame)
Interleave, preload duration : 512 ms
Mò va bene ??
Hai installato K-lite Codec Pack la versione minima la Full.
Allora selezioni il file avi che dobbiamo lavorare. Tasto DX => mediainfo e ti uscirà un rapporto. Questo lo selezioni e lo incolli nella risposta che fai. :professore: :professore:
Bye. :D :D :D

Avatar utente
Jen@
Active Software Plus
Active Software Plus
Messaggi: 819
Iscritto il: 16 nov 2008 16:17

Re: hard disk multimediale

Messaggioda Jen@ » 22 ago 2011 19:21

Interessante !!!!!
Chi tace, non sempre acconsente. A volte non ha voglia di discutere con idioti.

auberve
Active Software
Active Software
Messaggi: 226
Iscritto il: 16 mag 2003 22:45
Località: Bergamo

Re: hard disk multimediale

Messaggioda auberve » 23 ago 2011 07:23

Per Giallu: il pacchetto K-lite Codec pack lo avevo già installato sul Pc. Forse è per questo che i film li vedo senza problemi?

Copio il contenuto dell'analisi fatta con MediaInfo Lite.

Film NON letto:
General
Complete name : H:\LEstateDiMartino.avi
Format : AVI
Format/Info : Audio Video Interleave
File size : 1.37 GiB
Duration : 1h 20mn
Overall bit rate : 2 427 Kbps
Writing application : VirtualDubMod 1.5.10.2 (build 2540/release)
Writing library : VirtualDubMod build 2540/release

Video
ID : 0
Format : MPEG-4 Visual
Format profile : Advanced Simple@L5
Format settings, BVOP : 1
Format settings, QPel : No
Format settings, GMC : No warppoints
Format settings, Matrix : Default (MPEG)
Codec ID : XVID
Codec ID/Hint : XviD
Duration : 1h 20mn
Bit rate : 1 970 Kbps
Width : 640 pixels
Height : 336 pixels
Display aspect ratio : 1.905
Frame rate : 25.000 fps
Color space : YUV
Chroma subsampling : 4:2:0
Bit depth : 8 bits
Scan type : Progressive
Compression mode : Lossy
Bits/(Pixel*Frame) : 0.366
Stream size : 1.11 GiB (81%)
Writing library : XviD 1.2.1 (UTC 2008-12-04)

Audio
ID : 1
Format : AC-3
Format/Info : Audio Coding 3
Mode extension : CM (complete main)
Codec ID : 2000
Duration : 1h 20mn
Bit rate mode : Constant
Bit rate : 448 Kbps
Channel(s) : 6 channels
Channel positions : Front: L C R, Side: L R, LFE
Sampling rate : 48.0 KHz
Bit depth : 16 bits
Compression mode : Lossy
Stream size : 258 MiB (18%)
Alignment : Split accross interleaves
Interleave, duration : 40 ms (1.00 video frame)
Interleave, preload duration : 500 ms


Analisi film letto:
H:\IGuardianiDelDestino.avi
Format : AVI
Format/Info : Audio Video Interleave
File size : 1.81 GiB
Duration : 1h 45mn
Overall bit rate : 2 450 Kbps
Writing application : Nandub v1.0rc2
Writing library : Nandub build 1853/release

Video
ID : 0
Format : MPEG-4 Visual
Format profile : Advanced Simple@L5
Format settings, BVOP : 1
Format settings, QPel : Yes
Format settings, GMC : No warppoints
Format settings, Matrix : Default (H.263)
Muxing mode : Packed bitstream
Codec ID : XVID
Codec ID/Hint : XviD
Duration : 1h 45mn
Bit rate : 1 802 Kbps
Width : 720 pixels
Height : 384 pixels
Display aspect ratio : 1.850
Frame rate : 23.976 fps
Color space : YUV
Chroma subsampling : 4:2:0
Bit depth : 8 bits
Scan type : Progressive
Compression mode : Lossy
Bits/(Pixel*Frame) : 0.272
Stream size : 1.33 GiB (74%)
Writing library : XviD 1.2.1 (UTC 2008-12-04)

Audio
ID : 1
Format : AC-3
Format/Info : Audio Coding 3
Mode extension : CM (complete main)
Codec ID : 2000
Duration : 1h 45mn
Bit rate mode : Constant
Bit rate : 640 Kbps
Channel(s) : 6 channels
Channel positions : Front: L C R, Side: L R, LFE
Sampling rate : 48.0 KHz
Bit depth : 16 bits
Compression mode : Lossy
Stream size : 484 MiB (26%)
Alignment : Split accross interleaves
Interleave, duration : 42 ms (1.00 video frame)
Interleave, preload duration : 500 ms

Avatar utente
Zen
Advanced Software
Advanced Software
Messaggi: 2964
Iscritto il: 20 mag 2003 14:58
Località: Dalle parti di Ravenna
Contatta:

Messaggioda Zen » 23 ago 2011 08:19

Quindi non è il codec audio a dare problemi.
A sto punto non saprei il motivo x cui certi film si vedono e altri no...
Potresti postare altri 2 film letto / non letto sempre con questo criterio?

auberve
Active Software
Active Software
Messaggi: 226
Iscritto il: 16 mag 2003 22:45
Località: Bergamo

Re: hard disk multimediale

Messaggioda auberve » 23 ago 2011 10:10

Eccoli.

Film non letto:
H:\L.Erede.The.Heir.2011.iTALiAN.LD.SCREENER.XviD-BmA.avi
Format : AVI
Format/Info : Audio Video Interleave
File size : 645 MiB
Duration : 1h 24mn
Overall bit rate : 1 073 Kbps
Writing application : VirtualDubMod 1.5.4.1 (build 2178/release)
Writing library : VirtualDubMod build 2178/release

Video
ID : 0
Format : MPEG-4 Visual
Format profile : Advanced Simple@L5
Format settings, BVOP : No
Format settings, QPel : No
Format settings, GMC : No warppoints
Format settings, Matrix : Custom
Codec ID : XVID
Codec ID/Hint : XviD
Duration : 1h 24mn
Bit rate : 938 Kbps
Width : 704 pixels
Height : 400 pixels
Display aspect ratio : 16:9
Frame rate : 25.000 fps
Color space : YUV
Chroma subsampling : 4:2:0
Bit depth : 8 bits
Scan type : Progressive
Compression mode : Lossy
Bits/(Pixel*Frame) : 0.133
Stream size : 564 MiB (87%)
Writing library : XviD 1.2.1 (UTC 2008-12-04)

Audio
ID : 1
Format : MPEG Audio
Format version : Version 1
Format profile : Layer 3
Mode : Joint stereo
Codec ID : 55
Codec ID/Hint : MP3
Duration : 1h 24mn
Bit rate mode : Constant
Bit rate : 128 Kbps
Channel(s) : 2 channels
Sampling rate : 48.0 KHz
Compression mode : Lossy
Stream size : 76.9 MiB (12%)
Alignment : Aligned on interleaves
Interleave, duration : 80 ms (2.00 video frames)
Interleave, preload duration : 504 ms
Writing library : LAME3.98r
Encoding settings : -m j -V 4 -q 2 -lowpass 17 -b 128


Film letto:
Complete name : H:\InnocentiBugie.avi
Format : AVI
Format/Info : Audio Video Interleave
File size : 1.36 GiB
Duration : 1h 45mn
Overall bit rate : 1 860 Kbps
Writing application : FairUse Wizard - http://fairusewizard.com" onclick="window.open(this.href);return false;
Writing library : The best and REALLY easy backup tool

Video
ID : 0
Format : MPEG-4 Visual
Format profile : Advanced Simple@L5
Format settings, BVOP : 1
Format settings, QPel : No
Format settings, GMC : No warppoints
Format settings, Matrix : Default (MPEG)
Muxing mode : Packed bitstream
Codec ID : XVID
Codec ID/Hint : XviD
Duration : 1h 45mn
Bit rate : 1 466 Kbps
Width : 712 pixels
Height : 288 pixels
Display aspect ratio : 2.472
Frame rate : 25.000 fps
Color space : YUV
Chroma subsampling : 4:2:0
Bit depth : 8 bits
Scan type : Progressive
Compression mode : Lossy
Bits/(Pixel*Frame) : 0.286
Stream size : 1.08 GiB (79%)
Writing library : XviD 1.2.1 (UTC 2008-12-04)

Audio
ID : 1
Format : AC-3
Format/Info : Audio Coding 3
Mode extension : CM (complete main)
Codec ID : 2000
Duration : 1h 45mn
Bit rate mode : Constant
Bit rate : 384 Kbps
Channel(s) : 6 channels
Channel positions : Front: L C R, Side: L R, LFE
Sampling rate : 48.0 KHz
Bit depth : 16 bits
Compression mode : Lossy
Stream size : 289 MiB (21%)
Alignment : Split accross interleaves
Interleave, duration : 40 ms (1.00 video frame)
Interleave, preload duration : 500 ms

Avatar utente
Giallu
Active Software Plus
Active Software Plus
Messaggi: 553
Iscritto il: 28 ott 2007 16:54

Re: hard disk multimediale

Messaggioda Giallu » 23 ago 2011 12:01

Per Giallu: il pacchetto K-lite Codec pack lo avevo già installato sul Pc. Forse è per questo che i film li vedo senza problemi?
Ciao auberve.
Ovvio con k-lite codec pack leggi pure le fette di mortadella con i pistacchi. :eheheh: :eheheh: :eheheh:
Purtroppo dobbiamo modificare l'audio se lo vuoi vedere sulla USB della TV.
Comincia ad rabbocarti le maniche.
Ti devo chiedere una cortesia di non chiudere virtualDud fino a che non abbiamo modificato il film. Se succede perderai tutte le impostazioni e dovrai rincominciare da capo.
Iniziamo ad aprire VirtualDub.
File => Open video file => e selezioni LEstateDiMartino.avi .
Video => Direct Stream Copy lo selezioni.
Ora passiamo all'audio da modificare.
Audio => selezioni Full processing mode.
Audio => Conversion => channels => stereo, fai ok . Purtroppo dobbiamo passare a due canali per il motivo che ti spiegavo all'inizio.
Audio => Compression => AC3 acm codec sulla finestra di dx selezioni 192 KBit/s. 48000 Hz. stereo 24 KBit/s. Fai ok.
E per finire vai su File => Save as avi selezioni la destinazione che vuoi tempo 4 o 5 minuti e il film e pronto.
Finito il primo film non chiudere VirtualDub. E lascialo aperto e seleziona solo il film i settagi impostati rimangono.

File => Open video file => IGuardianiDelDestino.avi
File => Save as avi .

Pure se questo video a l'audio mp3 con Bit rate : 128 Kbps o lo fai per ultimo impostando il codec AC3 a 128 KBit./s. tanto non succede nulla se lasci tutto invariato.
File => Open video file => L.Erede.The.Heir.2011.iTALiAN.LD.SCREENER.XviD-BmA.avi.
File => Save as avi .

File => Open video file => InnocentiBugie.avi
File => Save as avi .
Che sudata oggi.
Fammi sapere.
Bye.

auberve
Active Software
Active Software
Messaggi: 226
Iscritto il: 16 mag 2003 22:45
Località: Bergamo

Re: hard disk multimediale

Messaggioda auberve » 23 ago 2011 13:55

Mi dispiace Giallu, ho provato a fare la conversione che mi hai detto dei film indicati, ma risultano ancora illeggibili. Mi sa che devi fare un'altra super sudata...

Avatar utente
Giallu
Active Software Plus
Active Software Plus
Messaggi: 553
Iscritto il: 28 ott 2007 16:54

Re: hard disk multimediale

Messaggioda Giallu » 23 ago 2011 15:19

Mi dispiace Giallu, ho provato a fare la conversione che mi hai detto dei film indicati, ma risultano ancora illeggibili. Mi sa che devi fare un'altra super sudata...
Ciao auberve.
Con molta pazienza e tanto sudore riusciremo ad risolvere almeno ha capire il bandolo della matassa.
Allora tu hai inserito HD alla porta USB del tuo TV ?? OK.
Allora per verificare se hai una pen driver puoi fare la stessa cosa copiando un solo film per prova ed inserirla nella porta USB. Gentilmente.
E se percortesia sempre mi indichi la marca della TV ed il modello.
Se no ci stiamo massacrando senza che poi non hai il player incluso nella TV.
A per essere scrupolosi senza che mi copy il rapporto dei file che hai convertito mi guardi se la sezione audio con MediaInfo Lite è stata modificata.Grazie.
Bye.

auberve
Active Software
Active Software
Messaggi: 226
Iscritto il: 16 mag 2003 22:45
Località: Bergamo

Re: hard disk multimediale

Messaggioda auberve » 23 ago 2011 15:52

Giallu, ti ringrazio per la pazienza che hai. Il televisore che uso per vedere è un Panasonic Veira TX32LXD80F. Lo stesso problema ce l'ho con il monitor/TV Samsung SyncMaster 710 MP quando lo uso in modalità TV. L'HD multimediale lo collego alla Tv con il cavo AV che ha tre spinette rossa-bianca-gialla, perchè il Panasanonic non ha la porta USB.

La parte audio è stata modificata, in alcuni punti, che preferisco copiare (film L'estate di Martino)

Audio
ID : 1
Format : AC-3
Format/Info : Audio Coding 3
Mode extension : CM (complete main)
Codec ID : 2000
Duration : 1h 20mn
Bit rate mode : Constant
Bit rate : 192 Kbps
Channel(s) : 2 channels
Channel positions : Front: L R
Sampling rate : 48.0 KHz
Bit depth : 16 bits
Compression mode : Lossy
Stream size : 111 MiB (9%)
Alignment : Aligned on interleaves
Interleave, duration : 40 ms (1.00 video frame)
Interleave, preload duration : 512 ms


Ciao

Avatar utente
Giallu
Active Software Plus
Active Software Plus
Messaggi: 553
Iscritto il: 28 ott 2007 16:54

Re: hard disk multimediale

Messaggioda Giallu » 23 ago 2011 16:43

Ciao auberve.
E di chè. Per vedere i tuoi film devi avere una porta USB nel tuo TV ed il player audio installato dalla casa.
Questi due modelli non hanno il player dentro.
Per vedere i tuoi film ho compri il WD che ti ho indicato o aimè te li vedi nel tuo PC. Ho colleghi il samsug al PC.
Però non disperare più avanti quando ti farai un nuovo TV ricordati se il video ti da problemi segui sempre quello che ti ho indicato.
Bye.

Avatar utente
Zen
Advanced Software
Advanced Software
Messaggi: 2964
Iscritto il: 20 mag 2003 14:58
Località: Dalle parti di Ravenna
Contatta:

Re: hard disk multimediale

Messaggioda Zen » 23 ago 2011 18:50

GIallu...ma se ha un hard disk multimediale che se ne fa della porta usb sulla tv? :)
Auberve, dopo la conversione audio, l'estate di martino funziona?

auberve
Active Software
Active Software
Messaggi: 226
Iscritto il: 16 mag 2003 22:45
Località: Bergamo

Re: hard disk multimediale

Messaggioda auberve » 23 ago 2011 20:57

Purtroppo no. Ci deve essere qualcosa che inibisce la lettura di qualche film. Sembra non dipenda neppure dai codec...

Avatar utente
Giallu
Active Software Plus
Active Software Plus
Messaggi: 553
Iscritto il: 28 ott 2007 16:54

Re: hard disk multimediale

Messaggioda Giallu » 23 ago 2011 21:12

GIallu...ma se ha un hard disk multimediale che se ne fa della porta usb sulla tv? :)
Auberve, dopo la conversione audio, l'estate di martino funziona?
Ciao Zen.
Dato che non sapevo che TV aveva. Ed immaginavo che avesse una TV di ultima generazione. Gli avevo consigliato di usare una pen driver per vedere se c'erano problemi di compatibilità con questo fantomatico HD multimediale.
Ovviamente che la discussione andava avanti si è capito che il suo TV non aveva prese USB. Così mi decadeva l'ipotesi di provare.
Per vedere i film o usi una presa scart o USB o l'ultima novità HDMI. Mò sinceramente un cavo av non sò se da problemi.
Bye.

Avatar utente
Giallu
Active Software Plus
Active Software Plus
Messaggi: 553
Iscritto il: 28 ott 2007 16:54

Re: hard disk multimediale

Messaggioda Giallu » 23 ago 2011 21:26

Ciao auberve.
Guarda se sul Panasonic ci sono delle impostazioni da vedere per la connessione AV.
Bye.

Avatar utente
Zen
Advanced Software
Advanced Software
Messaggi: 2964
Iscritto il: 20 mag 2003 14:58
Località: Dalle parti di Ravenna
Contatta:

Re: hard disk multimediale

Messaggioda Zen » 23 ago 2011 22:59

Il cavo av può dare problemi ma su tutti i film. In questo caso è il lettore che qualcosa riesce a gestire qualcosa no.
Collegandolo al pc li vede xkè viene visto come memoria di massa, quindi è il pc che si occupa di leggere i film, alla tv invece è il "lettore" dell'hard disk multimediale.
Che xò non supporta qualcosa...e onestamente non saprei cosa, dagli esempi che sono stati postati non c'è un vero e proprio parametro, nei film non letti, diverso dai film che riesci a leggere.
Potresti provare (se hai un pò d tempo da buttare) a convertire i film con FormatFactory (almeno io uso quello...Giallu e Jen@ mi sembrano + ferrati in questo campo) magari in divx invece che in xvid.