hard disk multimediale

Il luogo giusto per le vostre discussioni su qualunque software di grafica e sulle tematiche riguardanti l'editing audio/video. Si parla di DirectX, editing audio/video, codec e computer grafica.

Moderatore: Staff forum IlSoftware.it

auberve
Active Software
Active Software
Messaggi: 226
Iscritto il: 16 mag 2003 22:45
Località: Bergamo

Re: hard disk multimediale

Messaggioda auberve » 25 ago 2011 00:01

Zen, ho provato a convertire due film, non letti, con il pgm che utilizzi "FormatFactory" e ora li VEDO. Non so quali parametri sono stati modificati con questo pgm. Però la conversione è lunghissima, circa 3 ore. Potrebbe essere dovuto ad un errato settaggio? La conversione la faccio nel formato AVI. La cosa importante è che funziona e che il problema potrebbe essere veramente un problema di "codec".

Avatar utente
Zen
Advanced Software
Advanced Software
Messaggi: 2964
Iscritto il: 20 mag 2003 14:58
Località: Dalle parti di Ravenna
Contatta:

Re: hard disk multimediale

Messaggioda Zen » 25 ago 2011 08:33

Si purtroppo format factory è lento, xò non c'è da sbattersi :D quindi x me è una manna ^_^
Il problema sono di sicuro i codec, ma non ho capito quali...
Ora bisognerebbe sentire qualcuno x capire se c'è qualche programma + veloce di formatfactory. :) Caso mai apri un altro post e vedi se qualcuno conosce qualcosa ^_^

Avatar utente
Giallu
Active Software Plus
Active Software Plus
Messaggi: 553
Iscritto il: 28 ott 2007 16:54

Re: hard disk multimediale

Messaggioda Giallu » 25 ago 2011 21:38

Ciao auberve.
Se gentilmente ci posti l'analisi fatta con MediaInfo Lite. Della conversione con format factory.
Bye giallu. :D :D :D

auberve
Active Software
Active Software
Messaggi: 226
Iscritto il: 16 mag 2003 22:45
Località: Bergamo

Re: hard disk multimediale

Messaggioda auberve » 27 ago 2011 11:23

Queste sono le copie dei film convertiti con Format Factory e che riesco a leggere:

1° Film:
Complete name : H:\LEstateDiMartino [Qualità e dimensione_ Alta].avi
Format : AVI
Format/Info : Audio Video Interleave
File size : 889 MiB
Duration : 1h 20mn
Overall bit rate : 1 540 Kbps
Writing application : MEncoder SVN-r30881(20100311-gcc4.3.3)
Writing library : MPlayer

Video
ID : 0
Format : MPEG-4 Visual
Format profile : Advanced Simple@L5
Format settings, BVOP : 2
Format settings, QPel : No
Format settings, GMC : No warppoints
Format settings, Matrix : Default (H.263)
Codec ID : XVID
Codec ID/Hint : XviD
Duration : 1h 20mn
Bit rate : 1 400 Kbps
Width : 640 pixels
Height : 336 pixels
Display aspect ratio : 1.905
Frame rate : 25.000 fps
Color space : YUV
Chroma subsampling : 4:2:0
Bit depth : 8 bits
Scan type : Progressive
Compression mode : Lossy
Bits/(Pixel*Frame) : 0.260
Stream size : 808 MiB (91%)
Writing library : XviD 1.2.1 (UTC 2008-12-04)

Audio
ID : 1
Format : MPEG Audio
Format version : Version 1
Format profile : Layer 3
Mode : Joint stereo
Codec ID : 55
Codec ID/Hint : MP3
Duration : 1h 20mn
Bit rate mode : Constant
Bit rate : 128 Kbps
Channel(s) : 2 channels
Sampling rate : 44.1 KHz
Compression mode : Lossy
Delay relative to video : 40ms
Stream size : 73.9 MiB (8%)
Alignment : Aligned on interleaves
Interleave, duration : 26 ms (0.65 video frame)
Interleave, preload duration : 522 ms


2° Film
Complete name : H:\LEstateDiMartino [Qualità e dimensione_ Alta].avi
Format : AVI
Format/Info : Audio Video Interleave
File size : 889 MiB
Duration : 1h 20mn
Overall bit rate : 1 540 Kbps
Writing application : MEncoder SVN-r30881(20100311-gcc4.3.3)
Writing library : MPlayer

Video
ID : 0
Format : MPEG-4 Visual
Format profile : Advanced Simple@L5
Format settings, BVOP : 2
Format settings, QPel : No
Format settings, GMC : No warppoints
Format settings, Matrix : Default (H.263)
Codec ID : XVID
Codec ID/Hint : XviD
Duration : 1h 20mn
Bit rate : 1 400 Kbps
Width : 640 pixels
Height : 336 pixels
Display aspect ratio : 1.905
Frame rate : 25.000 fps
Color space : YUV
Chroma subsampling : 4:2:0
Bit depth : 8 bits
Scan type : Progressive
Compression mode : Lossy
Bits/(Pixel*Frame) : 0.260
Stream size : 808 MiB (91%)
Writing library : XviD 1.2.1 (UTC 2008-12-04)

Audio
ID : 1
Format : MPEG Audio
Format version : Version 1
Format profile : Layer 3
Mode : Joint stereo
Codec ID : 55
Codec ID/Hint : MP3
Duration : 1h 20mn
Bit rate mode : Constant
Bit rate : 128 Kbps
Channel(s) : 2 channels
Sampling rate : 44.1 KHz
Compression mode : Lossy
Delay relative to video : 40ms
Stream size : 73.9 MiB (8%)
Alignment : Aligned on interleaves
Interleave, duration : 26 ms (0.65 video frame)
Interleave, preload duration : 522 ms